<?xml version="1.0" standalone="no"?> <!DOCTYPE svg PUBLIC "-//W3C//DTD SVG 1.0//EN" "http://www.w3.org/TR/2001/REC-SVG-20010904/DTD/svg10.dtd" > <svg xmlns="http://www.w3.org/2000/svg" width="100%" height="100%">
<defs >
<font id="MathJax_Size4-Regular" horiz-adv-x="773" ><font-face
    font-family="MathJax_Size4"
    units-per-em="1000"
    panose-1="0 0 0 0 0 0 0 0 0 0"
    ascent="2017"
    descent="-1450"
    alphabetic="0" />
<missing-glyph horiz-adv-x="250" d="M50 0V533H200V0H50ZM100 50H150V483H100V50Z" />
<glyph unicode=" " glyph-name="space" horiz-adv-x="250" />
<glyph unicode="(" glyph-name="parenleft" horiz-adv-x="792" d="M758 -1237T758 -1240T752 -1249H736Q718 -1249 717 -1248Q711 -1245 672 -1199Q237 -706 237 251Q237 1206 672 1700Q697 1730 716 1749Q718 1750 735 1750H752Q758 1744 758 1741T744 1719Q560
1489 463 1176Q348 802 348 251Q348 -301 463 -675Q560 -988 744 -1218Q758 -1237 758 -1240Z" />
<glyph unicode=")" glyph-name="parenright" horiz-adv-x="792" d="M33 1741Q33 1750 52 1750H60Q73 1750 74 1749Q80 1746 119 1700Q554 1207 554 251T119 -1199Q80 -1245 74 -1248H68Q61 -1249 56 -1249H50Q33 -1249 33 -1239Q33 -1236 50 -1215Q218 -1006 311
-727Q443 -335 443 251Q443 836 311 1228Q218 1507 50 1716Q33 1737 33 1741Z" />
<glyph unicode="/" glyph-name="slash" horiz-adv-x="1278" d="M1166 1738Q1176 1750 1189 1750T1211 1742T1221 1721Q1221 1720 1221 1718T1220 1715Q1219 1708 666 238T111 -1237Q102 -1249 86 -1249Q74 -1249 65 -1240T56 -1220Q56 -1219 56 -1217T57 -1214Q58
-1207 611 263T1166 1738Z" />
<glyph unicode="[" glyph-name="bracketleft" horiz-adv-x="583" d="M269 -1249V1750H577V1677H342V-1176H577V-1249H269Z" />
<glyph unicode="\" glyph-name="backslash" horiz-adv-x="1278" d="M56 1720Q56 1732 64 1741T85 1750Q104 1750 111 1738Q113 1734 666 264T1220 -1214Q1220 -1215 1220 -1217T1221 -1220Q1221 -1231 1212 -1240T1191 -1249Q1175 -1249 1166 -1237Q1164 -1233
611 237T57 1715Q57 1716 56 1718V1720Z" />
<glyph unicode="]" glyph-name="bracketright" horiz-adv-x="583" d="M5 1677V1750H313V-1249H5V-1176H240V1677H5Z" />
<glyph unicode="{" glyph-name="braceleft" horiz-adv-x="806" d="M661 -1243L655 -1249H622L604 -1240Q480 -1179 410 -1075Q361 -1001 348 -909Q346 -897 346 -499L345 -98L343 -82Q340 -52 332 -24Q313 53 268 117T157 223Q155 225 152 227T149 230T147 232T145
236T144 242T144 250Q144 254 144 256T144 261T145 265T146 268T147 270T150 272T153 275T157 278Q222 320 267 384T332 525Q340 553 343 583L345 600L346 1001Q346 1398 348 1410Q355 1459 371 1500Q413 1610 520 1689Q553 1714 600 1739L622 1750H655L661 1744V1727V1715Q661
1706 651 1702Q602 1675 561 1630T495 1533Q465 1470 459 1398Q458 1389 458 1001Q458 614 457 605Q446 477 356 370Q281 290 202 251L250 222Q260 216 301 185Q325 165 356 131Q446 24 457 -104Q458 -113 458 -501Q458 -888 459 -897Q469 -1017 543 -1108Q569
-1141 602 -1167Q625 -1187 651 -1201Q661 -1205 661 -1214V-1226V-1243Z" />
<glyph unicode="}" glyph-name="braceright" horiz-adv-x="806" d="M144 1727Q144 1743 145 1746T156 1750H167H183L203 1740Q247 1718 285 1689Q414 1593 447 1456Q453 1436 456 1410Q458 1398 458 1001Q459 661 459 624T465 558Q479 471 528 397T649 277Q651
275 654 273T658 270T660 267T661 261T661 250T661 240T660 234T659 231T655 229T649 224Q577 179 528 105T465 -57Q460 -86 460 -123T458 -499Q458 -897 456 -909Q453 -935 447 -955Q422 -1062 333 -1147Q278 -1201 203 -1239L183 -1249H168Q150 -1249 147 -1246T144
-1226Q144 -1213 145 -1210T153 -1202Q204 -1173 243 -1129Q334 -1030 345 -897Q346 -888 346 -501Q346 -113 347 -104Q356 19 443 124Q464 150 503 184Q556 227 603 250Q554 274 503 317Q464 351 443 377Q356 482 347 605Q346 614 346 1002Q346 1389 345 1398Q338
1497 285 1576T153 1703Q146 1707 145 1710T144 1727Z" />
<glyph unicode="&#xa0;" glyph-name="uni00A0" horiz-adv-x="250" />
<glyph unicode="&#x2c6;" glyph-name="circumflex" horiz-adv-x="1889" d="M-13 625Q-11 628 461 736T943 845Q945 845 1417 738T1896 628Q1902 628 1902 618Q1902 616 1898 594Q1892 561 1883 561Q1881 561 1412 654L945 750L476 654Q6 561 5 561Q-4 561 -11
592Q-14 612 -14 618Q-14 623 -13 625Z" />
<glyph unicode="&#x2dc;" glyph-name="tilde" horiz-adv-x="1889" d="M607 821Q643 823 666 823Q738 823 784 814Q858 802 964 759Q1092 708 1173 699Q1211 695 1252 695Q1290 695 1338 699Q1523 718 1802 803Q1867 823 1871 823Q1872 822 1874 819T1878 814Q1885
783 1885 753Q1885 748 1884 747Q1884 738 1849 719Q1833 710 1742 683T1580 639Q1361 583 1212 583Q1152 583 1102 592Q1028 604 924 647Q849 676 806 688T713 707Q677 711 635 711Q595 711 551 707Q366 688 84 603Q20 583 16 583Q14 584 12 587T9 592Q-2 650
2 659Q2 669 38 687Q54 696 146 723T309 767Q464 809 607 821Z" />
<glyph unicode="&#x302;" glyph-name="uni0302" horiz-adv-x="0" d="M-1902 625Q-1900 628 -1428 736T-946 845Q-944 845 -472 738T7 628Q13 628 13 618Q13 616 9 594Q4 561 -6 561Q-8 561 -477 654L-944 750L-1413 654Q-1883 561 -1884 561Q-1893 561 -1900 592Q-1903
611 -1903 618Q-1903 623 -1902 625Z" />
<glyph unicode="&#x303;" glyph-name="tildecomb" horiz-adv-x="0" d="M-1282 821Q-1246 823 -1223 823Q-1152 823 -1105 814Q-1031 802 -925 759Q-797 708 -716 699Q-678 695 -637 695Q-599 695 -551 699Q-366 718 -87 803Q-22 823 -18 823Q-17 822 -15 819T-11
814Q-4 782 -4 753Q-4 748 -5 747Q-5 738 -40 719Q-56 710 -147 683T-309 639Q-528 583 -677 583Q-738 583 -787 592Q-861 604 -965 647Q-1040 676 -1083 688T-1176 707Q-1212 711 -1254 711Q-1294 711 -1338 707Q-1523 688 -1805 603Q-1869 583 -1873 583Q-1875
584 -1877 587T-1880 592Q-1891 650 -1887 659Q-1887 669 -1851 687Q-1835 696 -1743 723T-1580 767Q-1425 809 -1282 821Z" />
<glyph unicode="&#x221a;" glyph-name="radical" horiz-adv-x="1000" d="M983 1739Q988 1750 1001 1750Q1008 1750 1013 1745T1020 1733Q1020 1726 742 244T460 -1241Q457 -1250 436 -1250Q424 -1250 424 -1248L410 -1166Q395 -1083 367 -920T312 -601L201 44L137
-83L111 -57L187 96L264 247Q265 246 369 -357Q470 -958 473 -963L727 384Q979 1729 983 1739Z" />
<glyph unicode="&#x2308;" glyph-name="uni2308" horiz-adv-x="639" d="M269 -1249V1750H633V1677H342V-1249H269Z" />
<glyph unicode="&#x2309;" glyph-name="uni2309" horiz-adv-x="639" d="M5 1677V1750H369V-1249H296V1677H5Z" />
<glyph unicode="&#x230a;" glyph-name="uni230A" horiz-adv-x="639" d="M269 -1249V1750H342V-1176H633V-1249H269Z" />
<glyph unicode="&#x230b;" glyph-name="uni230B" horiz-adv-x="639" d="M296 -1176V1750H369V-1249H5V-1176H296Z" />
<glyph unicode="&#x239b;" glyph-name="uni239B" horiz-adv-x="875" d="M837 1154Q843 1148 843 1145Q843 1141 833 1127Q630 838 533 462T420 -420Q417 -576 417 -609Q417 -641 416 -647T411 -654Q409 -655 366 -655Q299 -655 297 -654Q292 -652 292 -643T291
-583Q294 -344 315 -129Q395 663 785 1136Q792 1145 800 1153Q801 1154 819 1154H837Z" />
<glyph unicode="&#x239c;" glyph-name="uni239C" horiz-adv-x="875" d="M413 -9Q412 -9 403 -9T381 -10T354 -10Q300 -10 297 -9Q294 -8 293 -5Q291 5 291 127V300Q291 602 292 605L296 609Q298 610 366 610Q377 610 387 610T404 610T412 609Q416 609 416 592T417
473V127Q417 -9 413 -9Z" />
<glyph unicode="&#x239d;" glyph-name="uni239D" horiz-adv-x="875" d="M843 -635Q843 -638 837 -644H820Q801 -644 800 -643Q792 -635 785 -626Q421 -184 327 536Q295 781 291 1093Q291 1144 291 1153T296 1164Q298 1165 366 1165Q409 1165 411 1164Q415 1163
416 1157T417 1119Q417 875 434 665Q465 257 563 -58T833 -617Q843 -631 843 -635Z" />
<glyph unicode="&#x239e;" glyph-name="uni239E" horiz-adv-x="875" d="M31 1143Q31 1154 48 1154H59Q73 1154 74 1153Q82 1145 89 1136Q453 694 547 -25Q579 -272 583 -583Q583 -634 583 -643T577 -654Q575 -655 508 -655Q465 -655 463 -654Q459 -653 458 -647T457
-609Q457 -366 440 -154Q412 218 329 510T100 1037Q69 1089 37 1132Q34 1137 31 1143Z" />
<glyph unicode="&#x239f;" glyph-name="uni239F" horiz-adv-x="875" d="M579 -9Q578 -9 569 -9T547 -10T520 -10Q466 -10 463 -9Q460 -8 459 -5Q457 5 457 127V300Q457 602 458 605L462 609Q464 610 532 610Q543 610 553 610T570 610T578 609Q582 609 582 592T583
473V127Q583 -9 579 -9Z" />
<glyph unicode="&#x23a0;" glyph-name="uni23A0" horiz-adv-x="875" d="M56 -644Q31 -644 31 -635Q31 -632 37 -622Q69 -579 100 -527Q245 -292 328 0T440 665Q457 874 457 1119Q457 1161 462 1164Q464 1165 520 1165Q575 1165 577 1164Q582 1162 582 1153T583
1093Q580 854 559 639Q479 -153 89 -626Q82 -635 74 -643Q73 -644 56 -644Z" />
<glyph unicode="&#x23a1;" glyph-name="uni23A1" horiz-adv-x="667" d="M319 -645V1154H666V1070H403V-645H319Z" />
<glyph unicode="&#x23a2;" glyph-name="uni23A2" horiz-adv-x="667" d="M319 0V602H403V0H319Z" />
<glyph unicode="&#x23a3;" glyph-name="uni23A3" horiz-adv-x="667" d="M319 -644V1155H403V-560H666V-644H319Z" />
<glyph unicode="&#x23a4;" glyph-name="uni23A4" horiz-adv-x="667" d="M0 1070V1154H347V-645H263V1070H0Z" />
<glyph unicode="&#x23a5;" glyph-name="uni23A5" horiz-adv-x="667" d="M263 0V602H347V0H263Z" />
<glyph unicode="&#x23a6;" glyph-name="uni23A6" horiz-adv-x="667" d="M263 -560V1155H347V-644H0V-560H263Z" />
<glyph unicode="&#x23a7;" glyph-name="uni23A7" horiz-adv-x="889" d="M712 899L718 893V876Q718 857 717 856Q711 850 704 846Q627 793 577 710T510 525Q510 524 509 521Q505 493 504 349Q504 345 504 334Q504 277 504 240Q504 -2 503 -4Q502 -8 494 -9T444
-10Q392 -10 390 -9Q387 -8 386 -5Q384 5 384 230Q384 467 385 476Q397 663 546 807Q596 854 664 892L677 899H712Z" />
<glyph unicode="&#x23a8;" glyph-name="uni23A8" horiz-adv-x="889" d="M389 1159Q391 1160 455 1160Q496 1160 498 1159Q501 1158 502 1155Q504 1145 504 924Q504 691 503 682Q492 525 396 398Q333 315 243 259L229 250L243 241Q373 161 442 30Q496 -70 503 -182Q504
-191 504 -424Q504 -600 504 -629T499 -659H498Q496 -660 444 -660T390 -659Q387 -658 386 -655Q384 -645 384 -425Q384 -191 383 -179Q367 84 183 221Q171 230 171 232Q170 233 170 250T171 268Q171 270 183 279Q272 346 324 449T383 679Q384 691 384 925Q384
1152 385 1155L389 1159Z" />
<glyph unicode="&#x23a9;" glyph-name="uni23A9" horiz-adv-x="889" d="M718 -893L712 -899H677L666 -893Q510 -809 434 -655Q391 -569 385 -476Q384 -466 384 -282Q384 3 385 5L389 9Q392 10 444 10Q486 10 494 9T503 4Q504 2 504 -239Q505 -484 506 -496Q514
-561 530 -609Q579 -760 704 -846Q711 -850 717 -856Q718 -857 718 -876V-893Z" />
<glyph unicode="&#x23aa;" glyph-name="uni23AA" horiz-adv-x="889" d="M389 309Q391 310 455 310Q496 310 498 309Q502 308 503 298Q504 283 504 150Q504 32 504 12T499 -9H498Q496 -10 444 -10T390 -9Q386 -8 385 2Q384 17 384 150Q384 303 385 305L389 309Z" />
<glyph unicode="&#x23ab;" glyph-name="uni23AB" horiz-adv-x="889" d="M175 898Q177 899 194 899H211L222 893Q356 820 435 692Q496 580 503 476Q504 467 504 230Q504 51 504 21T499 -9H498Q496 -10 444 -10Q402 -10 394 -9T385 -4Q384 -2 384 240Q383 484 382
496Q374 561 358 609Q309 760 184 846Q177 850 171 856Q170 857 170 875Q170 894 175 898Z" />
<glyph unicode="&#x23ac;" glyph-name="uni23AC" horiz-adv-x="889" d="M389 1159Q391 1160 455 1160Q496 1160 498 1159Q501 1158 502 1155Q504 1145 504 925Q504 691 505 679Q521 416 705 279Q717 270 717 268Q718 267 718 250T717 232Q717 230 705 221Q616
154 564 51T505 -179Q504 -191 504 -425Q504 -600 504 -629T499 -659H498Q496 -660 444 -660T390 -659Q387 -658 386 -655Q384 -645 384 -424Q384 -191 385 -182Q396 -25 492 102Q555 185 645 241L659 250L645 259Q515 339 446 470Q392 570 385 682Q384 692 384
873Q384 1153 385 1155L389 1159Z" />
<glyph unicode="&#x23ad;" glyph-name="uni23AD" horiz-adv-x="889" d="M389 9Q391 10 455 10Q496 10 498 9Q501 8 502 5Q504 -5 504 -230Q504 -467 503 -476Q496 -587 435 -691Q357 -820 222 -893L211 -899H195Q176 -899 173 -896T170 -874Q170 -857 171 -856Q177
-850 184 -846Q262 -793 312 -709T378 -525Q378 -524 379 -522Q383 -493 384 -351Q384 -345 384 -334Q384 -276 384 -239Q384 2 385 4T389 9Z" />
<glyph unicode="&#x23b7;" glyph-name="uni23B7" horiz-adv-x="1056" d="M742 -871Q741 -872 738 -875T734 -879T730 -881T724 -884T714 -885H702L222 569L180 484Q138 399 137 399Q131 404 124 412L111 425L265 736L702 -586V168L703 922Q713 935 722 935Q734
935 742 920V-871Z" />
<glyph unicode="&#x27e8;" glyph-name="uni27E8" horiz-adv-x="806" d="M140 242V260L386 994Q633 1729 635 1732Q643 1745 657 1749Q658 1749 662 1749T668 1750Q682 1749 692 1740T702 1714V1705L214 251L703 -1204L702 -1213Q702 -1229 693 -1238T667 -1248Q647
-1248 635 -1231Q633 -1228 386 -493L140 242Z" />
<glyph unicode="&#x27e9;" glyph-name="uni27E9" horiz-adv-x="806" d="M138 -1248Q122 -1248 113 -1239T103 -1213V-1204L591 251L103 1705V1714Q103 1730 112 1740T137 1750Q157 1750 170 1732Q172 1729 419 994L665 260V242L419 -493Q172 -1228 170 -1231Q158
-1248 138 -1248Z" />
<glyph unicode="&#xe000;" glyph-name="uniE000" horiz-adv-x="1056" d="M735 -14T722 -14T702 0V306L703 612Q713 625 722 625Q734 625 742 610V0Q735 -14 722 -14Z" />
<glyph unicode="&#xe001;" glyph-name="uniE001" horiz-adv-x="1056" d="M735 -14T722 -14T702 0V589Q707 600 713 602L718 605H1061Q1076 598 1076 585T1061 565H742V0Q735 -14 722 -14Z" />
<glyph unicode="&#xe150;" glyph-name="uniE150" horiz-adv-x="450" d="M-18 -213L-24 -207V-172L-16 -158Q60 -25 188 48Q290 110 415 119Q418 119 427 119T440 120Q457 120 459 114Q460 112 460 60T459 6Q457 0 441 0Q423 0 414 -1Q297 -8 204 -49T54 -163Q36
-185 25 -205Q21 -211 18 -212T-1 -213H-18Z" />
<glyph unicode="&#xe151;" glyph-name="uniE151" horiz-adv-x="450" d="M-10 60V90Q-10 118 -5 118Q-1 120 10 120Q144 120 262 48Q390 -25 466 -158L474 -172V-207L468 -213H451Q436 -213 433 -212T425 -205Q394 -149 338 -106Q253 -37 129 -13Q67 0 9 0Q-7 0
-9 6Q-10 8 -10 60Z" />
<glyph unicode="&#xe152;" glyph-name="uniE152" horiz-adv-x="450" d="M-24 327L-18 333H-1Q14 333 17 332T25 325Q38 302 54 284Q79 251 112 226Q197 157 321 133Q383 120 441 120Q457 120 459 114Q460 112 460 60T459 6Q457 0 442 0Q355 0 260 36Q212 57 188
72Q60 145 -16 278L-24 292V327Z" />
<glyph unicode="&#xe153;" glyph-name="uniE153" horiz-adv-x="450" d="M468 333L474 327V292L466 278Q390 145 262 72Q238 57 190 36Q95 0 8 0Q-7 0 -9 6Q-10 8 -10 60T-9 114Q-7 120 9 120Q27 120 37 121Q221 132 338 226Q371 251 396 284Q412 302 425 325Q429
331 431 331Q433 333 451 333H468Z" />
<glyph unicode="&#xe154;" glyph-name="uniE154" horiz-adv-x="400" d="M-10 0V120H410V0H-10Z" />
<glyph unicode="&#xeffd;" glyph-name="uniEFFD" horiz-adv-x="300" d="M0 0V100H100V0H0ZM200 0V100H300V0H200Z" />
<glyph unicode="&#xeffe;" glyph-name="uniEFFE" horiz-adv-x="300" d="M0 0V100H100V0H0ZM200 0V100H300V0H200Z" />
<glyph unicode="&#xefff;" glyph-name="uniEFFF" horiz-adv-x="100" d="M0 0V100H100V0H0Z" />
</font>
</defs>
</svg>
